<svg xmlns="http://www.w3.org/2000/svg"><defs><font id="klimabold" horiz-adv-x="1120"><font-face units-per-em="2048" ascent="1565" descent="-483"/><glyph horiz-adv-x="2048"/><glyph horiz-adv-x="2048"/><glyph horiz-adv-x="2048"/><glyph horiz-adv-x="0"/><glyph horiz-adv-x="630"/><glyph horiz-adv-x="401"/><glyph horiz-adv-x="401"/><glyph horiz-adv-x="401"/><glyph unicode="!" horiz-adv-x="421" d="M318 413l52 1114H10L64 413h254zM37 265V0h309v265H37z"/><glyph unicode="&quot;" horiz-adv-x="760" d="M387 1525v-370h251v370H387zm-387 0v-370h252v370H0z"/><glyph unicode="#" horiz-adv-x="1300" d="M1135 1073H905l-37-185h233l-30-202H827l-51-271H544l53 271H385l-54-271H101l51 271H-47l30 202h210l37 185H17l34 202h218l49 250h230l-49-250h215l49 250h230l-49-250h222zm-460 0H460l-37-185h215z"/><glyph unicode="$" horiz-adv-x="1300" d="M1041 684q40-53 57.5-115t12-122.5-17-108T1063 245q-15-35-39-68t-63-67-86.5-59.5T761 7.5 620-13v-165H462V-6Q371 5 289.5 32t-145 65T32 176t-90 89l249 191q129-125 271-157v359q-60 16-96.5 26T282 711t-79 36Q95 807 44.5 897T-4 1122q1 60 18 117.5t54 112 89.5 96.5 131 69 173.5 32v144h158v-149q153-16 255-76.5t188-181.5l-230-155q-25 53-83 88.5T620 1268V921q69-17 119.5-33.5T847 844t105-67 89-93zm-729 488q-27-73 14-131.5T462 964v304q-61-10-98-31.5t-52-64.5zm308-882q45 6 78.5 27t52.5 57.5 19 85.5q0 52-39.5 88.5T620 611V290z"/><glyph unicode="%" horiz-adv-x="1479" d="M318-2H140l810 1524h179zm232 1333q23-80 22.5-181.5T550 974q-9-29-23-57t-37.5-57.5-52.5-51-70.5-35.5-89.5-14q-57 0-104.5 17.5t-79 47.5T42 884.5 8 950q-25 70-27.5 192T6 1340q32 78 106 135.5t165 57.5q95 0 172.5-59T550 1331zm-180-314q11 56 9.5 135.5T365 1280q-7 26-32 49t-56 23q-34 0-60.5-23.5T181 1266q-11-52-10-126.5t14-126.5q7-27 30.5-55.5T277 929q21 0 39 9.5t29 23.5 17.5 28.5 7.5 26.5zm886-469q21-80 19-181t-23-174q-12-39-32-74t-51.5-69-80-54T981-24q-58 0-105 17t-78.5 47-51 60.5T714 166q-28 67-30.5 192T708 559q31 77 106 134.5T981 751q95 0 173-59.5T1256 548zm-183-316q10 54 9 136.5T1069 499q-3 15-15 30.5t-32 27-41 11.5q-23 0-42.5-10t-34-29.5T884 484q-11-51-10.5-127T886 230q34-84 97-84 39 0 61.5 27.5T1073 232z"/><glyph unicode="&amp;" horiz-adv-x="1303" d="M1168 174l8-8L972-24 957-6q-30 33-79 87t-51 52q-54-54-128-94T538-19 365.5-30t-168 52.5T56 150q-58 79-72 170t11.5 174 80 158T207 780l8 8Q5 1032 78 1266q37 126 144 204.5t240 78.5 245-73.5T866 1280q26-65 27.5-132T875 1020t-58-115.5-90-98.5l-15-10q-21-19-60-49 29-32 92-104t97-110l146 123 187-228-133-112q21-23 42-46.5t35.5-39.5 25.5-29 17-19.5 7-7.5zM630 346L419 574q-34-24-60-55t-41-67-8.5-74.5T346 306q21-24 51-33t61.5-4.5T523 285t60 28 47 33zm-123 654q85 80 90 141 2 47-31.5 82.5T486 1264q-38 4-67-11t-44.5-44.5T359 1141q0-21 5.5-41.5T383 1058t23-34 29.5-36 26.5-31q3 2 7 6l8.5 8.5L490 984l17 16z"/><glyph unicode="'" horiz-adv-x="324" d="M0 1525v-370h252v370H0z"/><glyph unicode="(" horiz-adv-x="599" d="M197-245Q87-49 22.5 209T-45 718q-7 579 240 989l240-131q-105-186-157.5-408T228 714q3-218 56.5-431T433-99z"/><glyph unicode=")" horiz-adv-x="618" d="M185-245Q295-49 360 209t68 509q7 578-241 989l-238-131q104-186 156.5-408T154 714q-3-219-56-432T-49-99z"/><glyph unicode="*" horiz-adv-x="636" d="M583 1288l-193-65 121-165-109-84-123 165-119-167-113 82 121 169-198 63 43 132 198-64v216h140v-213l187 63zm-310-32h2-2z"/><glyph unicode="+" horiz-adv-x="1178" d="M966 831V566H624V205H353v361H15v265h338v361h271V831h342z"/><glyph unicode="," horiz-adv-x="414" d="M2 318V0h142L69-207h120L338 0v318H2z"/><glyph unicode="-" horiz-adv-x="821" d="M30 740V548h678v192H30z"/><glyph unicode="." horiz-adv-x="414" d="M2 310V-2h331v312H2z"/><glyph unicode="/" horiz-adv-x="1300" d="M649 1529L2-2h318l656 1531H649z"/><glyph unicode="0" horiz-adv-x="1219" d="M1060 1144q22-181 23.5-383T1060 398q-10-63-33.5-122t-67-116.5-101-100T718-9 538-35 358-6.5 220 65t-98 100-66 109-35 104Q-9 523-8.5 758T19 1144q32 183 175.5 297T538 1555q100 0 189.5-27.5t160-78.5 116-129.5T1060 1144zM749 505q5 100 3 282.5t-8 263.5q-2 44-14 81.5t-35 69.5-62 50-91 18-91-18-61.5-49-35-65-16.5-73q-9-79-9.5-263T340 492q2-20 5-36.5t9.5-42.5 15.5-45.5 25-41.5 35.5-36.5 49-24T544 256q31 0 57 5.5t45.5 17 34.5 25 26 32.5 18 38 12 42.5 7.5 43.5 4.5 45z"/><glyph unicode="1" horiz-adv-x="816" d="M24 1325v-310q46 0 89.5 14t75 36 54 44.5T277 1153V0h332v1525H286q-12-35-57.5-82t-104-82.5T24 1325z"/><glyph unicode="2" horiz-adv-x="1115" d="M19 1141q19-4 49.5-12t95.5-24.5 107-27 41-8.5q19 81 66.5 133t118.5 58q24 2 47-.5t44.5-10.5 39-22 30.5-33.5 20.5-47.5 7.5-62q0-40-24-81.5t-70.5-88-96-89T375 721 252 607q-51-51-88.5-100t-61-99T64 313.5 42 213t-9.5-101.5T30 0h961v286q-580 2-583 0 0 44 100 149t221 193q61 44 113 101.5T935 856t60.5 150 10.5 162q-12 110-77 197t-170 135.5-232 48.5q-109 0-198.5-31.5t-151-87.5-101-128.5T19 1141z"/><glyph unicode="3" horiz-adv-x="1212" d="M318 1118q42 120 140 150 20 7 45.5 7t53-6 53-20 46-34 33-51 12.5-68q0-26-5-47.5t-11.5-37-20-28.5-23.5-20.5-29.5-16.5-29.5-12.5-32-10.5q-5-2-10.5-3.5t-11.5-2-10-1.5-12-1.5-11.5-.5H481l-12.5-.5H454l-15 .5V669h74q19 0 36.5-1.5T590 661t43-13.5 40-24 34.5-35.5 23.5-51 9-69q1-52-14-91t-42-61-60-32.5-72-10.5q-80 0-143.5 45T316 456L15 340q39-103 106-177.5T272 48 449-6.5 643-10Q768 2 865 65t150 157.5 60 205.5q5 63-4.5 118t-27.5 94-43 71.5-50.5 53-50.5 35-43 20-29 5.5q13 0 34.5 11.5t49 35T962 930t41 82 19 106-16 129q-17 64-52 116t-77 83.5-89.5 54.5-91.5 33.5-79.5 16-57.5 6.5h-21q-96 0-175.5-22.5t-130.5-56-93-82-64-89-40-88.5z"/><glyph unicode="4" horiz-adv-x="1229" d="M938 556h172V262H938V2H613v260H-6v294l556 969h388V556zm-650 16h325v518z"/><glyph unicode="5" horiz-adv-x="1197" d="M981 1529v-286H365q0-20-1-53t-3-102.5-3-113.5-1-41q0 4 8.5 14t28 24.5 45.5 28 67 23 87 9.5q64 0 121-13t108-39 92-68.5 71-98 46.5-130.5 17.5-164q1-107-22.5-195.5t-66.5-152-103.5-107T722.5 0 564-21Q455-21 365.5 4.5t-147 64-101.5 92-66.5 101T15 361l301 93q0-3 1-7t5-17.5 9-26.5 14-30 19.5-32.5 26-30.5 34-26 42.5-18 52-8q65-1 113 30.5t72.5 87T729 503q0 111-36 170.5T572 757q-87 25-162.5-22T320 600L45 656l26 873h910z"/><glyph unicode="6" horiz-adv-x="1186" d="M1017 638q25-90 26-176t-20-160-65.5-136-107-105.5T703-7 519-30q-135 0-248 55.5t-185.5 161T7.5 445 84 794q49 114 138 297t153 309l64 127h357L443 897q12 22 44 36.5t77.5 18.5 97.5-2 106.5-29.5T871 862t87.5-93 58.5-131zM525 234q101 3 148 69.5T720 480q0 107-50 171.5T523 716q-48 0-87-20.5t-62.5-54-36.5-74-13-83.5q0-44 12-87t35-81 63-60.5 91-21.5z"/><glyph unicode="7" horiz-adv-x="1072" d="M33 1227v300h956v-224L501 0H142l512 1227H33z"/><glyph unicode="8" horiz-adv-x="1158" d="M827 792q24-9 54.5-32.5t64-62.5 60.5-84.5 41.5-105T1056 390q-6-66-24.5-122T975 159t-93-90T744.5 9.5 559-13 369 10.5 222 71t-104.5 86.5-67 100T21 359q-10 85 15 171t83 156 137 104q-92 58-146 163t-36 221q6 51 26 100.5t58 99 89 86.5 126.5 60.5T538 1544q64 0 123.5-13t108-36 89.5-54.5 70.5-69.5 48.5-81 26-88q5-48 6-87.5t-7-75.5-17.5-64-26-54-31.5-44.5-34-35.5-34.5-28-32.5-21zm-289 486q-78-3-125.5-56.5T372 1099q7-67 63-115.5T559 921q52 23 85.5 54.5t46 66.5 11.5 69.5-14 68.5q-9 20-17.5 33.5T645 1245t-44.5 26.5-62.5 6.5zm2-1028q59 0 103.5 29t64 72 14.5 88q-3 42-18 76.5T670 571t-45.5 38.5T579 635t-41.5 16.5T509 663q-177-90-158-259 2-22 9.5-42.5T383 320t35.5-36 52-24.5T540 250z"/><glyph unicode="9" horiz-adv-x="1100" d="M-24 927q-24 147 1 266t92 198.5 172.5 122T482 1555q134-1 247.5-56T915 1338.5t77.5-258.5T916 731q-50-114-138.5-297.5T625 124L562-2H205l347 609q-18-17-54-27.5T413.5 568t-102 7.5-107.5 35T104 676 23.5 780-24 927zm492 363q-187-5-187-245 0-71 19.5-123t63-83T471 808q48 0 85.5 20.5T616 883t33 74 11 84-10.5 86.5-32 81-60 61T468 1290z"/><glyph unicode=":" horiz-adv-x="480" d="M49 1060V727h334v333H49zm0-647V103h334v310H49z"/><glyph unicode=";" horiz-adv-x="494" d="M0 1063V731h338v332H0zm2-745V0h142L69-207h120L338 0v318H2z"/><glyph unicode="&lt;" horiz-adv-x="1117" d="M782 107l102 199-603 307 605 310-104 197-797-408V513z"/><glyph unicode="=" horiz-adv-x="1300" d="M-2 636V380h1017v256H-2zm0 495V882h1017v249H-2z"/><glyph unicode="&gt;" horiz-adv-x="1117" d="M86 107L-15 306l602 307-604 310 103 197 798-408V513z"/><glyph unicode="?" horiz-adv-x="1130" d="M273 310V0h310v310H273zm699 827q7-37 7.5-72.5t-5-67-13-59.5-22-54.5-27.5-48-33-44-35-38-37.5-35-36-30.5-35.5-28l-17-13q-54-44-83.5-76.5t-44-65.5-14.5-75v-11H275v11q0 52 9.5 100t22.5 83 37 71 42 58 49 50 46.5 40 45.5 34q81 60 110 106t21 101q-6 47-27.5 82.5t-50 53.5-54.5 26-48 8q-42 0-82-16.5t-77-58-54-103.5l-5-24-301 86 8 22q53 182 201.5 291t336.5 99q182-9 309.5-119T972 1137z"/><glyph unicode="@" horiz-adv-x="1578" d="M1213 1318q101-111 155-259.5t54-316.5q0-240-76-379-24-45-55-76t-61.5-45-54.5-19.5-48-5.5q-64 0-122.5 34.5T901 351q-21 28-49 92-61-97-187-97-70 0-125.5 21t-93 58.5-61 90-33 113.5-6.5 130q3 66 16.5 123t39 104.5T463 1067t86 50.5 109 15.5q70-3 115-36.5t50-74.5l8 82 178-16-14-359-2-7-2-75q0-55 13.5-104t33.5-81 43.5-50 45.5-18q31 0 65 55 53 96 53 293 0 132-41 248.5t-113 199T918.5 1320 704 1368q-102 0-196-40.5T338 1211q-89-88-136.5-206T154 753q0-88 18-171.5T231.5 418 334 278.5t154.5-96T697 146h7q34-2 76.5 3.5T845 168l86-153q-80-45-213-45h-23Q586-29 488.5-1.5T308.5 79 162 209Q74 316 26.5 456T-21 753q0 169 60 319t174 264q100 100 227 154t264 54q148 0 279-58.5t230-167.5zM806 733q5 78-6.5 130t-40 80-75.5 31q-78 6-115-54.5T525 744q-6-126 28.5-184.5T671 501q66 0 98.5 58T806 733z"/><glyph unicode="A" horiz-adv-x="1526" d="M1011 0l-93 277H421L322 0H-64l589 1527h310L1400 0h-389zM497 544h348l-164 531z"/><glyph unicode="B" horiz-adv-x="1311" d="M854 794q29 0 66.5-13t79.5-42 77-70 57.5-104 22.5-137q0-33-4.5-66t-14-70.5-27-72T1070 152t-59-60-77.5-48-99-32.5T712 0H0v1527h595q76 0 142.5-13t126.5-42.5 105.5-73.5 76-109.5T1086 1141q9-79-4.5-142T1042 899t-62-62-67.5-34-58.5-9zm-540 449V909h326q74 0 117 49t43 115q0 26-5.5 49.5t-19 46-34 38.5-52.5 26-72 10H314zm293-966q123 0 171.5 46T827 462q0 81-56 131t-164 50H314V277h293z"/><glyph unicode="C" horiz-adv-x="1397" d="M634 1551q-80 0-149.5-11T348 1503t-122-66-101.5-101.5-78.5-141-50.5-186T-24 774q-1-129 15-236.5t47-189T115.5 203t103-107 126-71 144-40T649-26q116-1 213 28.5T1020.5 80 1130 185.5t72 115 39.5 105.5 18.5 78l4 29-359 49q-1-5-3-14-6-22-9.5-34.5t-11-37-15-40-19.5-38-25-37-32-31-40.5-26.5-49.5-17-60-8q-18 0-39 3.5T551 298t-55.5 32.5-54 57.5-47.5 85.5T361.5 595 349 757q-1 115 12 201t36.5 141.5 60.5 90 80.5 48.5 99.5 14q46 0 85-16t64.5-41.5 46-56 32-61.5 19-56 9.5-41l3-16 353 72q-15 58-33 109t-46 104-62.5 96.5-82 82.5-104 65.5-130 42T634 1551z"/><glyph unicode="D" horiz-adv-x="1377" d="M1096 1247q106-188 106-500 0-225-36.5-349.5T1041 185Q938 92 833.5 46T595 0H0v1527h595q164 0 297-76.5t204-203.5zM513 303q49 0 86.5 4.5t75 17.5 65 35 51.5 58 39 86 23.5 120 8.5 158q0 62-5.5 115t-17 93.5-25.5 74-33 58-38 43-42.5 30.5-44 20-45 12-43.5 5.5-41 1.5H340V303h173z"/><glyph unicode="E" horiz-adv-x="1289" d="M0 1527V0h1063v295H349v331h537v295H349v302h700v304H0z"/><glyph unicode="F" horiz-adv-x="1264" d="M0 1527V0h349v607h560v314H349v316h689v290H0z"/><glyph unicode="G" horiz-adv-x="1455" d="M-28 759q0-114 14-211t38.5-170.5T85 244t76-102 89.5-73.5 96.5-50 101-30 99.5-15T643-30q137 0 249 40.5t193.5 120 126 204.5 44.5 287v219H654V559h247q-6-74-20-123t-43-86.5-77.5-55T640 277q-300 0-296 478 1 116 16 203.5t47.5 153 86 98.5 128.5 33q42 0 77-8.5t60-21 46-35 33.5-42 25-50.5 18.5-52 15-55l350 66q-15 79-40.5 146t-60 119-77.5 93.5-92 70-106 47.5-117 27.5-126 8.5q-111 0-206.5-25.5T242 1446 99 1295.5t-93-227T-28 759z"/><glyph unicode="H" horiz-adv-x="1397" d="M0 1527V0h353v615h478V0h341v1527H831V916H353v611H0z"/><glyph unicode="I" horiz-adv-x="657" d="M0 1529V0h346v1529H0z"/><glyph unicode="J" horiz-adv-x="1201" d="M607 1527V533q0-136-42.5-189T415 293q-48 1-119 31t-118 59l-47 30-170-290q7-6 20.5-16.5T43 70t103-46 144-36 186-16q104 0 187 27t136 71.5 88 106 49 126T950 439v1088H607z"/><glyph unicode="K" horiz-adv-x="1442" d="M0 1527V0h344v484l192 228L927 0h393L763 959l474 568H827L344 921v606H0z"/><glyph unicode="L" horiz-adv-x="1237" d="M0 1527V0h1028v295H342v1232H0z"/><glyph unicode="M" horiz-adv-x="1762" d="M0 1527V0h327v888l318-783h192l345 794V0h324v1527h-379L744 652l-364 875H0z"/><glyph unicode="N" horiz-adv-x="1504" d="M0 1527V0h331v909L942 0h333v1527H923V597l-601 930H0z"/><glyph unicode="O" horiz-adv-x="1422" d="M624 1561q311 0 481-209t170-589q0-251-77-429.5t-224.5-272T617-33q-314-1-482 205.5T-33 768q0 386 171 589.5T624 1561zm-2-1282q134-1 206.5 127T901 761q0 92-9.5 166t-30 134.5-53 101T729 1225t-107 22q-149 0-218-124t-69-362q0-228 75.5-354T622 279z"/><glyph unicode="P" horiz-adv-x="1287" d="M602 1527q68 0 136-16.5t134.5-54T989 1364t81-139 31-187q0-131-33.5-228.5t-99-158-157-90.5T602 531H320V0H0v1527h602zm-11-688q38 0 70 10t59.5 31.5 43.5 62 16 95.5q0 56-19 97.5t-50.5 64.5-67 34-73.5 11H331V839h260z"/><glyph unicode="Q" horiz-adv-x="1483" d="M1266 86l-191-191L911 58q-35-28-83-47T726-17.5 613-28q-313-4-480.5 200.5T-35 776q0 187 40.5 332.5t120 247T328 1510t285 53q219 0 359-87t207.5-264 70.5-453q1-155-36.5-277.5T1106 248zM615 267q32 0 48.5 6.5T697 297L550 445l179 172 141-143q20 52 20 287 0 124-14 215t-45.5 157.5-85 100.5-130.5 34q-284 3-284-498 0-500 284-503z"/><glyph unicode="R" horiz-adv-x="1373" d="M873 600q0-5 77.5-155T1106 148l78-148H798L529 550H327V0H0v1527h630q91 0 171-27.5t138-74 100-108 62.5-131T1122 1045q0-123-21.5-200T1026 710.5 873 600zM587 841q97 0 154.5 50.5T800 1041q3 200-224 200H327V841h260z"/><glyph unicode="S" horiz-adv-x="1311" d="M1101 1288l-262-172q-46 70-117.5 107.5T536 1262q-214 3-218-140 0-19 3-34.5t11-29 16-23 24.5-19 28-15.5 36-13.5T475 976t45-13q18-5 29-8t28-8 32-9q8-3 25-8 54-17 81-26t72.5-25.5T862 846t65-38.5 65.5-50.5 56.5-62q153-207 35-469-21-46-62-89T920 56 770.5-5 581-28Q463-28 360.5-7t-180 59.5T45 136-60 236l269 224q24-25 45-43.5t49.5-41 57.5-39 63-31 72.5-22T576 275q55-1 100 17.5t73 56.5 29 90q-2 50-42 88t-106 63.5T494 636t-151 46.5T211 737Q109 792 46.5 887T-15 1120q1 51 15 102t41.5 100 71.5 91 100 74 132.5 50 163.5 18q145 0 257-32t189.5-89 145.5-146z"/><glyph unicode="T" horiz-adv-x="1354" d="M0 1527v-277h404V0h368v1250h396v277H0z"/><glyph unicode="U" horiz-adv-x="1348" d="M0 1527h365V509q0-31 7-62.5t23-65 39.5-59 61-41.5 83.5-16q57 0 100 20.5t67.5 56 36 77.5 11.5 90v1018h350V484q0-53-6-101.5T1115.5 280t-43.5-99-71-86.5T899.5 24t-139-46T581-39Q459-39 358.5-6T193 81 83 205 19 346.5 0 490v1037z"/><glyph unicode="V" horiz-adv-x="1436" d="M-60 1527L471 0h273l544 1527H933L613 509 306 1527H-60z"/><glyph unicode="W" horiz-adv-x="1797" d="M8 1527L378 0h285l225 899L1101 0h288l378 1527h-318l-202-925-211 871H753L540 602l-194 925H8z"/><glyph unicode="X" horiz-adv-x="1472" d="M-10 1527l455-747L-47 0h361l324 513L927 0h387L817 780l458 747H916l-264-471-280 471H-10z"/><glyph unicode="Y" horiz-adv-x="1383" d="M-49 1527l462-918V0h348v620l476 907H880L593 942l-277 585H-49z"/><glyph unicode="Z" horiz-adv-x="1289" d="M21 1527v-292h671L0 265V0h1110v290H421l689 980v257H21z"/><glyph unicode="[" horiz-adv-x="673" d="M574-200V71H293v1402h281v261H0V-200h574z"/><glyph unicode="\" horiz-adv-x="1053" d="M267 1529L914-2H595L-60 1529h327z"/><glyph unicode="]" horiz-adv-x="751" d="M2-200V71h282v1402H2v261h574V-200H2z"/><glyph unicode="^" horiz-adv-x="624" d="M546 1196l97 115-286 248h-99l-288-245 99-118 239 183z"/><glyph unicode="_" horiz-adv-x="1408" d="M2 2v-183h1288V2H2z"/><glyph unicode="a" d="M916 316V0H634l-14 111q-3-5-9-14t-31-31-58.5-39T427-3.5 293-17Q186-16 123.5 8T29 80t-48 133q-15 84 4.5 162.5t78 142.5T211 611q64 21 132 31.5t109.5 11 96-.5 68.5-1q1 4 2 10.5t1 26-3 37-12.5 38.5-25.5 36.5-44.5 26T468 837q-76 0-159-39t-120-78q0-1-42.5 50.5T61 873l-42 52q171 154 476 154 38 0 62.5-.5t73.5-8 82-21.5 74.5-42.5 67-68.5T898 834t18-144V316zm-303 54v104q-102 0-172.5-9t-113-28-61-45.5T248 327q0-36 19-62t48-37 63-15 63 4q33 9 70.5 28.5t69.5 54 32 70.5z"/><glyph unicode="b" horiz-adv-x="1108" d="M552 1084q38 0 73.5-5t80-19.5T788 1021t75-66.5 63.5-98T969 719t16-181q0-78-10-146t-26.5-118.5-40.5-93-50.5-71.5-57-51.5-59.5-36-59.5-22-54-11.5-46.5-3q-240 0-295 124V0H0v1527h295V946q7 20 26.5 42t50 44 78.5 37 102 15zm140-555q0 152-55.5 234T484 845q-63 0-110-38.5t-73-112T275 521q0-146 60.5-227T484 213t148 84.5T692 529z"/><glyph unicode="c" horiz-adv-x="1096" d="M688 686l262 94q-18 46-41 86t-62 83-86.5 73.5-117.5 50-153 19.5q-81 0-152-19.5T211.5 1018 112 933 39.5 821-4 687.5-19 538q0-96 19.5-180T61 203.5 161.5 82t143-79.5T488-26q74 0 136.5 13t106 32 81 49.5T871 125t41.5 62 28 57 18.5 51q-262 95-264 95 0-2-4.5-15.5t-7-19.5-8.5-20.5-11.5-23-15-22-19.5-22-24.5-18-30-14.5-36-8.5T495 224q-72 2-121 46.5t-71 114T281 542q0 53 7 97.5t22 84.5 38 67.5 58.5 44T486 852q28 0 52.5-6.5T580 831t33.5-23.5 25.5-27 20-32.5 15.5-31 13.5-31z"/><glyph unicode="d" horiz-adv-x="1156" d="M398 1084q-28 0-55.5-3t-61-11-64-21-63-35T95 963.5 43.5 893 2 801t-27-117.5T-35 538q0-100 16.5-182.5t42-138.5T85 118t72.5-67.5 77.5-40T307.5-10t62.5-5q239 0 295 124V0h285v1527H656V946q-7 20-26.5 42t-50.5 44-79 37-102 15zM262 523q0 101 25.5 172.5T359 803t109.5 36 110-37T650 693t25-172q0-146-59.5-227T468 213t-147 81.5T262 523z"/><glyph unicode="e" horiz-adv-x="1149" d="M258 423h706q9 141-11.5 254T888 866.5 779 994t-140.5 73.5T476 1090q-57 0-109-8.5t-103.5-28-94-50-80-77.5-63-107-40-141.5T-28 499q0-105 24-190.5t64-142T154.5 69 266 7t119-30.5 113.5-9T597-24q59 9 108.5 25t84 34.5T853 78t47 45 36 47L735 344q-30-40-57.5-64.5t-73-40T497 224q-43 0-79 9t-61.5 25-45 36-31 43-17 44.5T258 423zm409 205H265q0 65 20.5 111.5t55.5 70 76.5 32T505 843q41-6 72-25.5t50.5-48.5 29.5-64.5 10-76.5z"/><glyph unicode="f" horiz-adv-x="857" d="M84 0h320v835h209v236H404v58q0 16 2.5 32.5t7.5 35 15 34 24.5 28.5 36 20 48.5 7h79v241H464q-75 0-138-22t-106.5-59-74-87-45-106T86 1137v-66H-54V835H84V0z"/><glyph unicode="g" horiz-adv-x="1188" d="M681 1058h289V-37q0-208-136-331.5T466-492q-87 0-164 15.5t-126 38T91-394t-51 38l-16 16q193 192 193 194 7-9 35.5-26t72.5-35 93.5-23.5T517-222q89 32 120.5 86.5T669 6v60q-3-4-8.5-10t-27-22T585 6t-73.5-22T411-26q-45 0-85.5 6.5T241 4.5t-81.5 45-71.5 72T30.5 224-7 363t-14 179q0 88 17 163.5T41.5 834t66.5 95.5 78.5 69T271 1042t81.5 24 70.5 7q49 0 88.5-7.5T576 1047t47-29.5 33-32 25-35.5v108zM486 228q94 0 148 74t54 211q0 145-50 229.5T492 827q-66 0-115.5-33T299 690t-26-171q3-149 59.5-220T486 228z"/><glyph unicode="h" horiz-adv-x="1214" d="M0 1527h322q2-577 0-577 8 20 30 42.5t56.5 45 88 37.5 114.5 15q74 0 138.5-22t115-64 80-109T974 744V0H656v632q0 198-159 201-83 1-130-58.5T320 630V0H0v1527z"/><glyph unicode="i" horiz-adv-x="586" d="M0 1527v-261h318v261H0zm0-469V0h318v1058H0z"/><glyph unicode="j" horiz-adv-x="577" d="M0 1527v-275h320v275H0zm0-469h320V-2q0-62-4.5-110T299-206t-32.5-79-52.5-61.5-76-45.5-103.5-26.5T-101-428q-9 0-19 .5t-19.5 1-19 1.5-17.5 2-14 2-9 2h-4l3 273q6-1 17-3 22-4 34-6t34-3 35.5 3 30.5 14 26 27 16 45.5T0-2v1060z"/><glyph unicode="k" horiz-adv-x="1143" d="M0 1527h308V667l341 391h357L593 600 1034 0H684L419 406 306 281V0H0v1527z"/><glyph unicode="l" horiz-adv-x="541" d="M0 1527V2h299v1525H0z"/><glyph unicode="m" horiz-adv-x="1697" d="M0 1058h316V933q66 82 131.5 109t167.5 27q101 0 176-48.5T866 899q17 39 44 70t59 50.5 71 32.5 77 18 79 5q59 0 106.5-11.5t89-40T1461 949t43.5-118 15.5-166V0h-309v587q0 72-12 115t-37.5 63-67.5 20q-78 0-124.5-55T923 554V0H613v546q0 49-3.5 86.5T601 695t-15 42-18 26-23 13.5-24.5 5-28.5.5q-32 0-61-13t-54-40-40-73-15-106V0H0v1058z"/><glyph unicode="n" horiz-adv-x="1137" d="M0 1058h322V936q76 148 321 148 50 0 93-11t76-31.5 59-50 43.5-65.5 29.5-80 17-92 5-102V0H643v536q0 66-6 112.5T621 724t-27.5 45.5-37.5 22-49 4.5q-22-1-43-6t-46.5-21.5-43.5-43-30.5-74T331 542V0H0v1058z"/><glyph unicode="o" d="M-24 538q0-100 19.5-186T56 196 156 77 296 1t180-27q247 0 371.5 145T972 542q0 251-136 393t-365 142q-225 0-360-146T-24 538zm312-13q0 68 11 123t33.5 97 60 65 87.5 23q63 0 106.5-43t63-110.5T669 525q0-308-189-308-52 0-90.5 25.5t-60 70T298 410t-10 115z"/><glyph unicode="p" horiz-adv-x="1128" d="M970 527q0-98-17-179.5T908 211t-66.5-97.5-77-66.5T683 8t-76-20-63-5q-55 0-101 12.5T367.5 28t-47 40.5T297 109v-530H0v1479h286V948q12 28 36 50t52.5 35.5 61.5 22 62 12 56 3.5q39 0 76.5-6.5t79.5-24 78.5-44T859 927t58-98 38.5-132.5T970 527zM476 215q48 0 84.5 18.5t58 49T654 356t18.5 85 4.5 90q0 46-4 86.5T656 702t-34 75.5-57.5 51.5-84.5 20q-209 0-209-311 0-45 3.5-83t12.5-75 24.5-66 37.5-51.5 54-34.5 73-13z"/><glyph unicode="q" horiz-adv-x="1137" d="M-24 527q0-98 17-179.5T38 211t66.5-97.5 77-66.5T263 8t76-20 63-5q55 0 101 12.5T578.5 28t47 40.5T649 109v-530h297v1479H660V948q-15 34-47.5 59.5t-72 38.5-76.5 19-72 6q-39 0-76.5-6.5t-79.5-24-78.5-44T87 927t-58-98-38.5-132.5T-24 527zm495-312q-40 0-72 12.5t-54 36-37 53-23.5 66.5-12 73-3.5 75q0 46 4.5 87t18.5 84.5 35.5 75T386 829t85 20q204 0 204-311 0-54-5-98.5t-19-87-36-71.5-58.5-47-85.5-19z"/><glyph unicode="r" horiz-adv-x="898" d="M0 1058h308V942q0 19 15 41.5t42 44.5 73 36.5 100 14.5q38 0 74-4.5t62-11.5 48.5-16 37.5-17.5 26-15.5 16-12l4-4-131-269q-1 1-2 3t-6 8.5-11 12.5-15 14-19 15-23.5 14-27.5 11.5-32 7.5-36 2q-31-1-61.5-14t-59-38-46.5-70.5T318 591V0H0v1058z"/><glyph unicode="s" horiz-adv-x="1051" d="M-45 138l174 200q16-17 50-37t80.5-39.5T366 232t116-4q48 4 77 29.5t31 56.5-27.5 61.5T474 419q-23 5-67 14t-75 15-75 19-74.5 27-64 37.5-54 52-34 70T17 744q0 72 25.5 130t68.5 95.5 101.5 63 120.5 36 129 10.5q131 0 243-45.5T876 931L720 753q-4 5-12.5 13T663 794.5 581 831q-108 30-173 21t-92.5-37.5T295 747q4-22 23.5-37.5t57-27 76-19.5 100-21T660 615q56-16 99-47.5t69.5-71.5 39.5-87.5 12-97-16-98.5q-18-59-61-106T703 31.5t-119-43T460-26q-69 0-124 5.5T214.5.5t-132 50T-45 138z"/><glyph unicode="t" horiz-adv-x="821" d="M94 1420h314v-338h224V837H415V355q0-24 2-39t10.5-31 24.5-24.5 45-14.5 71-6h60V2Q509-2 400-2q-50 0-91.5 8T237 29.5 183.5 65 145 112t-25.5 53.5-15.5 60-7.5 63T94 353v484H-41v242H94v341z"/><glyph unicode="u" horiz-adv-x="1141" d="M0 1058h318V423q0-173 136-173 80 0 119.5 39.5T613 428v630h316V0H613v135q0-3-1-8.5t-7-21-16-30-30.5-32-47.5-30T440.5-8 344-17q-80 0-142 23.5T102.5 68 41 160 8.5 268 0 385v673z"/><glyph unicode="v" horiz-adv-x="1141" d="M-58 1058h346l200-682 198 682h334L602 0H359z"/><glyph unicode="w" horiz-adv-x="1614" d="M-51 1058h326l166-600 176 600h249l194-600 149 600h301L1170 0H929L742 622 554 0H308z"/><glyph unicode="x" horiz-adv-x="1149" d="M-43 1058h372l161-307 148 307h360L638 533 1004 0H638L464 314 297 0H-56l366 531z"/><glyph unicode="y" horiz-adv-x="1188" d="M-39 1058h363l201-705 206 705h342Q628-99 562-240q-28-64-80-107.5T371.5-410 246-435t-123-1-104 17l39 253q45-8 80-11.5t59.5-3 44 7.5 30.5 13 21.5 21 15 24.5T321-86q2 6 3 8.5t3 7 4 8.5l24 66z"/><glyph unicode="z" horiz-adv-x="1072" d="M28 1058h854V849L380 250h515V0H0v215l495 593H28v250z"/><glyph unicode="{" horiz-adv-x="708" d="M546-240V28q-9 0-21 2t-35.5 11T448 65t-32 47-14 75v381q0 88-45 142.5T240 765l-2 3q78 0 121 66t43 168v323q0 86 35 125.5t109 39.5v284q-137 2-238.5-54T152 1562t-55-237v-267q0-46-15-82t-38.5-56.5-49-31T-56 878V656q50-3 89-24 64-33 64-140V187q0-88 25-160t67-121 99.5-82.5 122-48.5T546-240z"/><glyph unicode="|" horiz-adv-x="605" d="M0 1748V-340h288v2088H0z"/><glyph unicode="}" horiz-adv-x="710" d="M0-232V37q9 0 21 1.5T56.5 49 98 73.5t32 47 14 74.5v373q0 88 45 142.5T306 765l2 3q-78 0-121 66t-43 168v314q0 85-35 125.5T0 1482v283q206 2 327-121t122-328v-258q0-37 10-68t26-51 36.5-34.5T562 884t40-6V656q-50-3-89-24-64-33-64-140V195q0-88-25-160T357-86t-99.5-82.5-122-48.5T0-232z"/><glyph unicode="¡" horiz-adv-x="466" d="M312 645l51-1113H4L58 645h254zM30 794v264h310V794H30z"/><glyph unicode="¨" horiz-adv-x="801" d="M531 1529v-222h271v222H531zm-531 0v-222h269v222H0z"/><glyph unicode="«" horiz-adv-x="1257" d="M387 158l149 150-314 312 316 313-151 151L-4 695V544zm527-4l149 152-314 311 316 314-151 151-391-390V542z"/><glyph unicode="­" horiz-adv-x="821" d="M30 740V548h678v192H30z"/><glyph unicode="¯" horiz-adv-x="745" d="M0 1438v-176h744v176H0z"/><glyph unicode="´" horiz-adv-x="763" d="M652 1578L37 1374l49-149 615 207z"/><glyph unicode="·" horiz-adv-x="431" d="M185 1069q-73 0-132-57.5T-6 878t59-131 132-55q72 0 128.5 55T370 878q0 50-26.5 94.5T274 1043t-89 26z"/><glyph unicode="»" horiz-adv-x="1225" d="M679 164L531 314l314 312-316 314 150 150 392-389V550zm-541 2L-10 316l313 312-316 314 151 150 391-388V552z"/><glyph unicode="¿" horiz-adv-x="1094" d="M669 1217v310H359v-310h310zM-30 390q-7 37-7.5 72.5t5 67 13 59.5 22 54.5 27.5 48 33 44 35 38 37.5 35 36 30.5 35.5 27l17 14q54 43 83.5 75.5t43.5 66 14 74.5v12h302v-12q0-52-9.5-99.5t-22.5-83-37-71-42-57.5-49-50-46.5-40-45.5-35q-81-60-110-105.5T284 454q6-47 27.5-82.5T361 318t54-26 49-8q42 0 82 16t77 58 54 104l4 24 302-86-9-22Q922 195 773.5 86.5T437-13Q255-3 127.5 107T-30 390z"/><glyph unicode="À" horiz-adv-x="1526" d="M1011 0l-93 277H421L322 0H-64l589 1527h310L1400 0h-389zM497 544h348l-164 531zM390 1987l614-204-50-149-614 207z"/><glyph unicode="Á" horiz-adv-x="1526" d="M1011 0l-93 277H421L322 0H-64l589 1527h310L1400 0h-389zM497 544h348l-164 531zm457 1443l-614-204 50-149 614 207z"/><glyph unicode="Â" horiz-adv-x="1526" d="M1011 0l-93 277H421L322 0H-64l589 1527h310L1400 0h-389zM497 544h348l-164 531zm414 1090l98 116-287 248h-98l-289-246 100-118 238 184z"/><glyph unicode="Ã" horiz-adv-x="1526" d="M1011 0l-93 277H421L322 0H-64l589 1527h310L1400 0h-389zM497 544h348l-164 531zm316 1095q70-3 122.5 25t120.5 95l-112 106q-2-2-13.5-15t-19.5-19.5-23-16.5-34-14-41-2q-21 1-47.5 14t-49.5 28-65.5 29-91.5 17q-73 3-145-34.5T284 1750l99-105q1 1 2.5 2t4.5 2.5 5 3 1 1.5q29 28 74 50t72 20q36-1 72.5-14t62.5-28 62.5-28.5T813 1639z"/><glyph unicode="Ä" horiz-adv-x="1526" d="M1011 0l-93 277H421L322 0H-64l589 1527h310L1400 0h-389zM497 544h348l-164 531zm316 1359v-221h271v221H813zm-532 0v-221h269v221H281z"/><glyph unicode="Å" horiz-adv-x="1526" d="M1011 0l-93 277H421L322 0H-64l589 1527h310L1400 0h-389zM497 544h348l-164 531zm176 1090q71 0 121.5 51.5T845 1808t-50.5 121.5T673 1980t-122.5-50.5T499 1808t51.5-122.5T673 1634zm0 243q19 0 35-9t25-25 9-35q0-29-20-49.5t-49-20.5-50 20.5-21 49.5 21 49 50 20z"/><glyph unicode="Ç" horiz-adv-x="1408" d="M1256 517q-1-7-2.5-19t-9.5-48-19.5-71-34.5-83-52.5-89-75.5-84-100.5-73.5-131-51T667-24l2-50q136-42 168-156 10-39 6.5-77T823-380.5 778-443q-63-60-152-60-28 0-80 13l-116 38 44 136 117-37q32-6 37-6 35 0 51 19 15 11 19 34t-1 37q-3 13-9 21.5t-21.5 20-45.5 24-77 27.5l-23 6v153Q420-5 335.5 32.5T183.5 136t-114 157.5-71 213.5T-26 776q0 128 17.5 234t49 185 78.5 140 102 101 122.5 65.5 137 36.5 149.5 11q117 0 215-30t166.5-80 118.5-119 77-143.5 36-156.5l-353-56q0 4-1 10.5t-5.5 26-10.5 39-17 46-24 49-33 45.5-43 39-54.5 26.5T634 1256q-56 0-99.5-14.5T454 1192t-60.5-91T357 958.5 344 757q1-88 12-161t28.5-122 42.5-87 50-59.5 55-34.5 54.5-17.5T636 271q40 0 74 11t57.5 26 44 41.5 32.5 47 24 53.5 16.5 50.5T897 548q3 11 4 16z"/><glyph unicode="È" horiz-adv-x="1289" d="M0 1527V0h1063v295H349v331h537v295H349v302h700v304H0zm250 460l614-204-49-149-615 207z"/><glyph unicode="É" horiz-adv-x="1289" d="M0 1527V0h1063v295H349v331h537v295H349v302h700v304H0zm815 460l-615-204 50-149 614 207z"/><glyph unicode="Ê" horiz-adv-x="1289" d="M0 1527V0h1063v295H349v331h537v295H349v302h700v304H0zm772 107l96 116-285 248h-99l-289-246 100-118 238 184z"/><glyph unicode="Ë" horiz-adv-x="1289" d="M0 1527V0h1063v295H349v331h537v295H349v302h700v304H0zm654 369v-221h271v221H654zm-531 0v-221h269v221H123z"/><glyph unicode="Ì" horiz-adv-x="657" d="M0 1529V0h346v1529H0zm-109 460l614-204-49-148-616 206z"/><glyph unicode="Í" horiz-adv-x="657" d="M0 1529V0h346v1529H0zm456 460l-616-204 51-148 614 206z"/><glyph unicode="Î" horiz-adv-x="657" d="M0 1529V0h346v1529H0zm413 108l96 115-285 248h-99l-289-245 100-118 238 183z"/><glyph unicode="Ï" horiz-adv-x="657" d="M0 1529V0h346v1529H0zm314 369v-221h271v221H314zm-531 0v-221H51v221h-268z"/><glyph unicode="Ñ" horiz-adv-x="1504" d="M0 1527V0h331v909L942 0h333v1527H923V597l-601 930H0zm778 111.5q36-1.5 67 5.5t60.5 23 56 37.5 60.5 54.5l-113 106q-2-2-13.5-15t-19.5-19.5-22.5-16.5-33.5-14-42-2q-21 1-47 14t-49 28-65.5 29-91.5 17q-72 3-144.5-34.5T250 1750l99-105 2 2 4.5 2.5 5 3 .5 1.5q29 28 74.5 50t71.5 20q37-1 73.5-14t62-28 62.5-28.5 73-15z"/><glyph unicode="Ò" horiz-adv-x="1422" d="M624 1561q311 0 481-209t170-589q0-251-77-429.5t-224.5-272T617-33q-314-1-482 205.5T-33 768q0 386 171 589.5T624 1561zm-2-1282q134-1 206.5 127T901 761q0 92-9.5 166t-30 134.5-53 101T729 1225t-107 22q-149 0-218-124t-69-362q0-228 75.5-354T622 279zM340 2021l614-203-49-150-615 207z"/><glyph unicode="Ó" horiz-adv-x="1422" d="M624 1561q311 0 481-209t170-589q0-251-77-429.5t-224.5-272T617-33q-314-1-482 205.5T-33 768q0 386 171 589.5T624 1561zm-2-1282q134-1 206.5 127T901 761q0 92-9.5 166t-30 134.5-53 101T729 1225t-107 22q-149 0-218-124t-69-362q0-228 75.5-354T622 279zm283 1742l-615-203 50-150 614 207z"/><glyph unicode="Ô" horiz-adv-x="1422" d="M624 1561q311 0 481-209t170-589q0-251-77-429.5t-224.5-272T617-33q-314-1-482 205.5T-33 768q0 386 171 589.5T624 1561zm-2-1282q134-1 206.5 127T901 761q0 92-9.5 166t-30 134.5-53 101T729 1225t-107 22q-149 0-218-124t-69-362q0-228 75.5-354T622 279zm240 1389l97 117-286 247h-99l-288-245 99-119 239 183z"/><glyph unicode="Õ" horiz-adv-x="1422" d="M624 1561q311 0 481-209t170-589q0-251-77-429.5t-224.5-272T617-33q-314-1-482 205.5T-33 768q0 386 171 589.5T624 1561zm-2-1282q134-1 206.5 127T901 761q0 92-9.5 166t-30 134.5-53 101T729 1225t-107 22q-149 0-218-124t-69-362q0-228 75.5-354T622 279zm141 1394q70-3 122 25t121 95l-111 105q-2-1-14-14.5t-19.5-19.5-22.5-15.5-34-13.5-42-3q-17 1-36.5 10t-39.5 21-43.5 24-58.5 21.5-76 11.5q-72 3-144-34.5T234 1785l99-106q1 1 2.5 2t5 3 5 3 .5 1q29 29 74.5 50.5T492 1759q37-2 73.5-15t62.5-28 62.5-28.5T763 1673z"/><glyph unicode="Ö" horiz-adv-x="1422" d="M624 1561q311 0 481-209t170-589q0-251-77-429.5t-224.5-272T617-33q-314-1-482 205.5T-33 768q0 386 171 589.5T624 1561zm-2-1282q134-1 206.5 127T901 761q0 92-9.5 166t-30 134.5-53 101T729 1225t-107 22q-149 0-218-124t-69-362q0-228 75.5-354T622 279zm129 1652v-222h271v222H751zm-532 0v-222h269v222H219z"/><glyph unicode="Ù" horiz-adv-x="1348" d="M0 1527h365V509q0-31 7-62.5t23-65 39.5-59 61-41.5 83.5-16q57 0 100 20.5t67.5 56 36 77.5 11.5 90v1018h350V484q0-53-6-101.5T1115.5 280t-43.5-99-71-86.5T899.5 24t-139-46T581-39Q459-39 358.5-6T193 81 83 205 19 346.5 0 490v1037zm290 460l615-204-49-149-616 207z"/><glyph unicode="Ú" horiz-adv-x="1348" d="M0 1527h365V509q0-31 7-62.5t23-65 39.5-59 61-41.5 83.5-16q57 0 100 20.5t67.5 56 36 77.5 11.5 90v1018h350V484q0-53-6-101.5T1115.5 280t-43.5-99-71-86.5T899.5 24t-139-46T581-39Q459-39 358.5-6T193 81 83 205 19 346.5 0 490v1037zm856 460l-616-204 50-149 615 207z"/><glyph unicode="Û" horiz-adv-x="1348" d="M0 1527h365V509q0-31 7-62.5t23-65 39.5-59 61-41.5 83.5-16q57 0 100 20.5t67.5 56 36 77.5 11.5 90v1018h350V484q0-53-6-101.5T1115.5 280t-43.5-99-71-86.5T899.5 24t-139-46T581-39Q459-39 358.5-6T193 81 83 205 19 346.5 0 490v1037zm813 107l96 116-285 248h-99l-289-246 99-118 239 184z"/><glyph unicode="Ü" horiz-adv-x="1348" d="M0 1527h365V509q0-31 7-62.5t23-65 39.5-59 61-41.5 83.5-16q57 0 100 20.5t67.5 56 36 77.5 11.5 90v1018h350V484q0-53-6-101.5T1115.5 280t-43.5-99-71-86.5T899.5 24t-139-46T581-39Q459-39 358.5-6T193 81 83 205 19 346.5 0 490v1037zm714 376v-221h271v221H714zm-531 0v-221h269v221H183z"/><glyph unicode="Ý" horiz-adv-x="1383" d="M-49 1527l462-918V0h348v620l476 907H880L593 942l-277 585H-49zm927 460l-616-204 50-149 615 207z"/><glyph unicode="Þ" horiz-adv-x="1354" d="M0 1527v-277h404V0h368v1250h396v277H0zm1166 1447v-335h118l86 335h-204z"/><glyph unicode="à" d="M916 316V0H634l-14 111q-3-5-9-14t-31-31-58.5-39T427-3.5 293-17Q186-16 123.5 8T29 80t-48 133q-15 84 4.5 162.5t78 142.5T211 611q64 21 132 31.5t109.5 11 96-.5 68.5-1q1 4 2 10.5t1 26-3 37-12.5 38.5-25.5 36.5-44.5 26T468 837q-76 0-159-39t-120-78q0-1-42.5 50.5T61 873l-42 52q171 154 476 154 38 0 62.5-.5t73.5-8 82-21.5 74.5-42.5 67-68.5T898 834t18-144V316zm-303 54v104q-102 0-172.5-9t-113-28-61-45.5T248 327q0-36 19-62t48-37 63-15 63 4q33 9 70.5 28.5t69.5 54 32 70.5zM150 1539l615-203-49-150-615 207z"/><glyph unicode="á" d="M916 316V0H634l-14 111q-3-5-9-14t-31-31-58.5-39T427-3.5 293-17Q186-16 123.5 8T29 80t-48 133q-15 84 4.5 162.5t78 142.5T211 611q64 21 132 31.5t109.5 11 96-.5 68.5-1q1 4 2 10.5t1 26-3 37-12.5 38.5-25.5 36.5-44.5 26T468 837q-76 0-159-39t-120-78q0-1-42.5 50.5T61 873l-42 52q171 154 476 154 38 0 62.5-.5t73.5-8 82-21.5 74.5-42.5 67-68.5T898 834t18-144V316zm-303 54v104q-102 0-172.5-9t-113-28-61-45.5T248 327q0-36 19-62t48-37 63-15 63 4q33 9 70.5 28.5t69.5 54 32 70.5zm103 1169l-615-203 49-150 615 207z"/><glyph unicode="â" d="M916 316V0H634l-14 111q-3-5-9-14t-31-31-58.5-39T427-3.5 293-17Q186-16 123.5 8T29 80t-48 133q-15 84 4.5 162.5t78 142.5T211 611q64 21 132 31.5t109.5 11 96-.5 68.5-1q1 4 2 10.5t1 26-3 37-12.5 38.5-25.5 36.5-44.5 26T468 837q-76 0-159-39t-120-78q0-1-42.5 50.5T61 873l-42 52q171 154 476 154 38 0 62.5-.5t73.5-8 82-21.5 74.5-42.5 67-68.5T898 834t18-144V316zm-303 54v104q-102 0-172.5-9t-113-28-61-45.5T248 327q0-36 19-62t48-37 63-15 63 4q33 9 70.5 28.5t69.5 54 32 70.5zm99 816l96 117-285 248H423l-288-246 99-119 240 184z"/><glyph unicode="ã" d="M916 316V0H634l-14 111q-3-5-9-14t-31-31-58.5-39T427-3.5 293-17Q186-16 123.5 8T29 80t-48 133q-15 84 4.5 162.5t78 142.5T211 611q64 21 132 31.5t109.5 11 96-.5 68.5-1q1 4 2 10.5t1 26-3 37-12.5 38.5-25.5 36.5-44.5 26T468 837q-76 0-159-39t-120-78q0-1-42.5 50.5T61 873l-42 52q171 154 476 154 38 0 62.5-.5t73.5-8 82-21.5 74.5-42.5 67-68.5T898 834t18-144V316zm-303 54v104q-102 0-172.5-9t-113-28-61-45.5T248 327q0-36 19-62t48-37 63-15 63 4q33 9 70.5 28.5t69.5 54 32 70.5zm-38.5 821.5q36.5-1.5 67 5t60 23T757 1257t60 54l-111 107q-2-2-13.5-15t-20-20-23-16.5T616 1353t-42-3q-17 1-36.5 10t-39.5 21-43.5 24-58.5 21.5-76 11.5q-72 4-144-34T45 1303l99-105q1 1 2.5 1.5t5 2.5 5 3l1.5 1q28 29 73.5 51t71.5 21q37-2 73.5-15t62.5-28 62.5-28.5 73-15z"/><glyph unicode="ä" d="M916 316V0H634l-14 111q-3-5-9-14t-31-31-58.5-39T427-3.5 293-17Q186-16 123.5 8T29 80t-48 133q-15 84 4.5 162.5t78 142.5T211 611q64 21 132 31.5t109.5 11 96-.5 68.5-1q1 4 2 10.5t1 26-3 37-12.5 38.5-25.5 36.5-44.5 26T468 837q-76 0-159-39t-120-78q0-1-42.5 50.5T61 873l-42 52q171 154 476 154 38 0 62.5-.5t73.5-8 82-21.5 74.5-42.5 67-68.5T898 834t18-144V316zm-303 54v104q-102 0-172.5-9t-113-28-61-45.5T248 327q0-36 19-62t48-37 63-15 63 4q33 9 70.5 28.5t69.5 54 32 70.5zm0 1105v-221h271v221H613zm-531 0v-221h269v221H82z"/><glyph unicode="å" d="M916 316V0H634l-14 111q-3-5-9-14t-31-31-58.5-39T427-3.5 293-17Q186-16 123.5 8T29 80t-48 133q-15 84 4.5 162.5t78 142.5T211 611q64 21 132 31.5t109.5 11 96-.5 68.5-1q1 4 2 10.5t1 26-3 37-12.5 38.5-25.5 36.5-44.5 26T468 837q-76 0-159-39t-120-78q0-1-42.5 50.5T61 873l-42 52q171 154 476 154 38 0 62.5-.5t73.5-8 82-21.5 74.5-42.5 67-68.5T898 834t18-144V316zm-303 54v104q-102 0-172.5-9t-113-28-61-45.5T248 327q0-36 19-62t48-37 63-15 63 4q33 9 70.5 28.5t69.5 54 32 70.5zm-178.5 816q70.5 0 121.5 52t51 123-50.5 121.5T435 1533t-123-51-52-121.5 52-122.5 122.5-52zm.5 244q29 0 48.5-20t19.5-49.5-19.5-50T435 1290q-30 0-51 21t-21 50 21 49 51 20z"/><glyph unicode="ç" horiz-adv-x="1113" d="M952 288q-9-28-17-48t-25.5-53-37.5-58-53-54-71.5-48.5-93.5-34T536-26l4-64q135-47 164-160 14-56-1-112t-56-96q-66-59-152-59-38 0-80 14l-116 35 47 135 116-37q21-4 35-4 34 0 51 17 14 12 18.5 34t-.5 37q-3 13-9 22.5t-21.5 21T490-219t-77 26l-21 6v166Q291-6 212.5 42.5T85 164.5 10.5 330-15 529q0 117 33.5 216.5T114 919t158.5 116 215.5 42q69 0 128.5-13t104.5-37 81-52.5 63.5-65T911 840t33-70l-260-95q-9 22-13.5 32T655 738t-20 32-25 27-33 24-41 14-52 6q-55 0-95.5-24t-63-67.5-33.5-97T281 533q0-88 21.5-156.5t70-113T492 217q25 0 47 4t39 12 31 17 25 22.5 18.5 23.5 14.5 26 10 23.5 7.5 21.5 5.5 16z"/><glyph unicode="è" horiz-adv-x="1149" d="M258 423h706q9 141-11.5 254T888 866.5 779 994t-140.5 73.5T476 1090q-57 0-109-8.5t-103.5-28-94-50-80-77.5-63-107-40-141.5T-28 499q0-105 24-190.5t64-142T154.5 69 266 7t119-30.5 113.5-9T597-24q59 9 108.5 25t84 34.5T853 78t47 45 36 47L735 344q-30-40-57.5-64.5t-73-40T497 224q-43 0-79 9t-61.5 25-45 36-31 43-17 44.5T258 423zm409 205H265q0 65 20.5 111.5t55.5 70 76.5 32T505 843q41-6 72-25.5t50.5-48.5 29.5-64.5 10-76.5zm-464 923l614-205-49-148-616 206z"/><glyph unicode="é" horiz-adv-x="1149" d="M258 423h706q9 141-11.5 254T888 866.5 779 994t-140.5 73.5T476 1090q-57 0-109-8.5t-103.5-28-94-50-80-77.5-63-107-40-141.5T-28 499q0-105 24-190.5t64-142T154.5 69 266 7t119-30.5 113.5-9T597-24q59 9 108.5 25t84 34.5T853 78t47 45 36 47L735 344q-30-40-57.5-64.5t-73-40T497 224q-43 0-79 9t-61.5 25-45 36-31 43-17 44.5T258 423zm409 205H265q0 65 20.5 111.5t55.5 70 76.5 32T505 843q41-6 72-25.5t50.5-48.5 29.5-64.5 10-76.5zm101 923l-616-205 51-148 614 206z"/><glyph unicode="ê" horiz-adv-x="1149" d="M258 423h706q9 141-11.5 254T888 866.5 779 994t-140.5 73.5T476 1090q-57 0-109-8.5t-103.5-28-94-50-80-77.5-63-107-40-141.5T-28 499q0-105 24-190.5t64-142T154.5 69 266 7t119-30.5 113.5-9T597-24q59 9 108.5 25t84 34.5T853 78t47 45 36 47L735 344q-30-40-57.5-64.5t-73-40T497 224q-43 0-79 9t-61.5 25-45 36-31 43-17 44.5T258 423zm409 205H265q0 65 20.5 111.5t55.5 70 76.5 32T505 843q41-6 72-25.5t50.5-48.5 29.5-64.5 10-76.5zm57 570l97 116-285 247h-99l-289-245 100-118 238 183z"/><glyph unicode="ë" horiz-adv-x="1149" d="M258 423h706q9 141-11.5 254T888 866.5 779 994t-140.5 73.5T476 1090q-57 0-109-8.5t-103.5-28-94-50-80-77.5-63-107-40-141.5T-28 499q0-105 24-190.5t64-142T154.5 69 266 7t119-30.5 113.5-9T597-24q59 9 108.5 25t84 34.5T853 78t47 45 36 47L735 344q-30-40-57.5-64.5t-73-40T497 224q-43 0-79 9t-61.5 25-45 36-31 43-17 44.5T258 423zm409 205H265q0 65 20.5 111.5t55.5 70 76.5 32T505 843q41-6 72-25.5t50.5-48.5 29.5-64.5 10-76.5zm-60 833v-222h271v222H607zm-531 0v-222h268v222H76z"/><glyph unicode="ì" horiz-adv-x="539" d="M0 1058V0h318v1058H0zm-123 460l615-204-49-148-615 206z"/><glyph unicode="í" horiz-adv-x="539" d="M0 1058V0h318v1058H0zm443 460l-615-204 49-148 615 206z"/><glyph unicode="î" horiz-adv-x="539" d="M0 1058V0h318v1058H0zm400 108l97 116-286 247H111l-287-245 98-118 240 182z"/><glyph unicode="ï" horiz-adv-x="539" d="M0 1058V0h318v1058H0zm290 329v-221h272v221H290zm-530 0v-221H28v221h-268z"/><glyph unicode="ñ" horiz-adv-x="1137" d="M0 1058h322V936q76 148 321 148 50 0 93-11t76-31.5 59-50 43.5-65.5 29.5-80 17-92 5-102V0H643v536q0 66-6 112.5T621 724t-27.5 45.5-37.5 22-49 4.5q-22-1-43-6t-46.5-21.5-43.5-43-30.5-74T331 542V0H0v1058zm624 138q69-3 121.5 25t120.5 95l-111 106q-2-2-13.5-15t-19.5-19.5-23-16.5-34-14-41-3q-21 2-47.5 15t-49.5 28-65.5 29-91.5 17q-49 2-100-16t-94.5-48.5T94 1307l99-105q1 1 2.5 2t5 2.5 5.5 3 1 1.5q29 29 74.5 51t71.5 20q36-1 72.5-14.5T488 1239t62.5-28.5T624 1196z"/><glyph unicode="ò" d="M-24 538q0-100 19.5-186T56 196 156 77 296 1t180-27q247 0 371.5 145T972 542q0 251-136 393t-365 142q-225 0-360-146T-24 538zm312-13q0 68 11 123t33.5 97 60 65 87.5 23q63 0 106.5-43t63-110.5T669 525q0-308-189-308-52 0-90.5 25.5t-60 70T298 410t-10 115zm-95 1012l615-203-49-150-615 207z"/><glyph unicode="ó" d="M-24 538q0-100 19.5-186T56 196 156 77 296 1t180-27q247 0 371.5 145T972 542q0 251-136 393t-365 142q-225 0-360-146T-24 538zm312-13q0 68 11 123t33.5 97 60 65 87.5 23q63 0 106.5-43t63-110.5T669 525q0-308-189-308-52 0-90.5 25.5t-60 70T298 410t-10 115zm471 1012l-615-203 49-150 615 207z"/><glyph unicode="ô" d="M-24 538q0-100 19.5-186T56 196 156 77 296 1t180-27q247 0 371.5 145T972 542q0 251-136 393t-365 142q-225 0-360-146T-24 538zm312-13q0 68 11 123t33.5 97 60 65 87.5 23q63 0 106.5-43t63-110.5T669 525q0-308-189-308-52 0-90.5 25.5t-60 70T298 410t-10 115zm428 659l97 117-286 248h-99l-288-246 98-119 240 184z"/><glyph unicode="õ" d="M-24 538q0-100 19.5-186T56 196 156 77 296 1t180-27q247 0 371.5 145T972 542q0 251-136 393t-365 142q-225 0-360-146T-24 538zm312-13q0 68 11 123t33.5 97 60 65 87.5 23q63 0 106.5-43t63-110.5T669 525q0-308-189-308-52 0-90.5 25.5t-60 70T298 410t-10 115zm329 665q48-2 89 12t74.5 38.5T860 1309l-111 106q-2-1-13.5-14.5t-19.5-20-23-16-34-13.5-42-3q-21 2-47 15t-49.5 28-65.5 29-92 16q-72 3-144-34.5T88 1301l99-105q1 0 2.5 1l4.5 3 4.5 3 1.5 1q28 29 74 50.5t72 20.5q31-1 59.5-10t52.5-21 47.5-24 52.5-20.5 59-9.5z"/><glyph unicode="ö" d="M-24 538q0-100 19.5-186T56 196 156 77 296 1t180-27q247 0 371.5 145T972 542q0 251-136 393t-365 142q-225 0-360-146T-24 538zm312-13q0 68 11 123t33.5 97 60 65 87.5 23q63 0 106.5-43t63-110.5T669 525q0-308-189-308-52 0-90.5 25.5t-60 70T298 410t-10 115zm316 922v-222h272v222H604zm-530 0v-222h268v222H74z"/><glyph unicode="ù" horiz-adv-x="1141" d="M0 1058h318V423q0-173 136-173 80 0 119.5 39.5T613 428v630h316V0H613v135q0-3-1-8.5t-7-21-16-30-30.5-32-47.5-30T440.5-8 344-17q-80 0-142 23.5T102.5 68 41 160 8.5 268 0 385v673zm183 460l615-204-49-148-616 206z"/><glyph unicode="ú" horiz-adv-x="1141" d="M0 1058h318V423q0-173 136-173 80 0 119.5 39.5T613 428v630h316V0H613v135q0-3-1-8.5t-7-21-16-30-30.5-32-47.5-30T440.5-8 344-17q-80 0-142 23.5T102.5 68 41 160 8.5 268 0 385v673zm749 460l-616-204 50-148 615 206z"/><glyph unicode="û" horiz-adv-x="1141" d="M0 1058h318V423q0-173 136-173 80 0 119.5 39.5T613 428v630h316V0H613v135q0-3-1-8.5t-7-21-16-30-30.5-32-47.5-30T440.5-8 344-17q-80 0-142 23.5T102.5 68 41 160 8.5 268 0 385v673zm706 108l96 116-285 247H417l-288-245 99-118 238 182z"/><glyph unicode="ü" horiz-adv-x="1141" d="M0 1058h318V423q0-173 136-173 80 0 119.5 39.5T613 428v630h316V0H613v135q0-3-1-8.5t-7-21-16-30-30.5-32-47.5-30T440.5-8 344-17q-80 0-142 23.5T102.5 68 41 160 8.5 268 0 385v673zm593 370v-222h271v222H593zm-531 0v-222h269v222H62z"/><glyph unicode="ý" horiz-adv-x="1188" d="M-39 1058h363l201-705 206 705h342Q628-99 562-240q-28-64-80-107.5T371.5-410 246-435t-123-1-104 17l39 253q45-8 80-11.5t59.5-3 44 7.5 30.5 13 21.5 21 15 24.5T321-86q2 6 3 8.5t3 7 4 8.5l24 66zm839 460l-615-204 49-148 615 206z"/><glyph unicode="þ" horiz-adv-x="821" d="M94 1420h314v-338h224V837H415V355q0-24 2-39t10.5-31 24.5-24.5 45-14.5 71-6h60V2Q509-2 400-2q-50 0-91.5 8T237 29.5 183.5 65 145 112t-25.5 53.5-15.5 60-7.5 63T94 353v484H-41v242H94v341zm782 1446v-336h117l86 336H876z"/><glyph unicode="ÿ" horiz-adv-x="1188" d="M-39 1058h363l201-705 206 705h342Q628-99 562-240q-28-64-80-107.5T371.5-410 246-435t-123-1-104 17l39 253q45-8 80-11.5t59.5-3 44 7.5 30.5 13 21.5 21 15 24.5T321-86q2 6 3 8.5t3 7 4 8.5l24 66zm684 370v-222h271v222H645zm-531 0v-222h269v222H114z"/><glyph unicode="Ÿ" horiz-adv-x="1383" d="M-49 1527l462-918V0h348v620l476 907H880L593 942l-277 585H-49zm701 421v-221h271v221H652zm-531 0v-221h269v221H121z"/><glyph unicode="ˆ" horiz-adv-x="667" d="M554 1204l98 116-287 248h-98l-288-245 99-119 238 183z"/><glyph unicode="˜" horiz-adv-x="821" d="M509 1297q70-3 122.5 25t121.5 96l-113 104q-1-1-12.5-14t-20-20-23-16.5T551 1458t-42-3q-21 2-47 15t-49 28-65 29-92 17q-72 3-144-35t-131-101l99-105q1 1 2.5 1.5t4.5 2.5l4.5 3 .5 1q29 29 74.5 51t71.5 21q37-2 73.5-15t62.5-28 62.5-28.5T509 1297z"/><glyph horiz-adv-x="1487"/><glyph horiz-adv-x="2974"/><glyph horiz-adv-x="1487"/><glyph horiz-adv-x="2974"/><glyph horiz-adv-x="991"/><glyph horiz-adv-x="743"/><glyph horiz-adv-x="495"/><glyph horiz-adv-x="495"/><glyph horiz-adv-x="371"/><glyph horiz-adv-x="594"/><glyph horiz-adv-x="165"/><glyph unicode="‐" horiz-adv-x="821" d="M30 740V548h678v192H30z"/><glyph unicode="‑" horiz-adv-x="821" d="M30 740V548h678v192H30z"/><glyph unicode="‒" horiz-adv-x="821" d="M30 740V548h678v192H30z"/><glyph unicode="–" horiz-adv-x="1085" d="M33 819V587h950v230z"/><glyph unicode="—" horiz-adv-x="1586" d="M43 813V587h1439v224z"/><glyph unicode="•" horiz-adv-x="630" d="M207 1011q-84 0-152-65.5t-68-154 68-154T207 572t151.5 65.5T426 792q0 58-32 109.5T311.5 982 207 1011z"/><glyph horiz-adv-x="594"/><glyph unicode="‹" horiz-adv-x="751" d="M383 187l148 151-314 311 316 315-150 150L-8 724V574z"/><glyph unicode="›" horiz-adv-x="687" d="M125 187L-24 338l314 311-316 315 151 150 392-390V574z"/><glyph horiz-adv-x="743"/><glyph unicode="" horiz-adv-x="1053" d="M0 1054h1054V0H0v1054z"/></font>
</defs>
</svg>
